Шина королева джунглей скачать через торрент

Шина – королева джунглей / Sheena (1984) WEB-DL 1080p

| | Дата: 10 февраля 2021 | Просмотров: 179

Название: Шина – королева джунглей
Оригинальное название: Sheena
Год выхода: 1984
Жанр: фэнтези, приключения
Режиссер: Джон Гиллермин
В ролях: Таня Робертс, Тед Уасс, Донован Скотт, Элизабет Ренье Торо, Франс Зобда, Тревор Томас, Клифтон Джонс, Джон Форджэм, Эррол Джон, Сильвестр Уильямс

О фильме: Что делает белокурая, дикая и воинственная красавица в африканских джунглях? Как она сюда попала? Это Шина — королева джунглей. Её белые родители были убиты во время сафари, а девочку взяла на воспитание колдунья из местного племени. Шина выросла, теперь она полна сил, очаровательна, владеет магией и защищает африканские джунгли и их обитателей, как свой собственный дом, от вторжения чужаков!

Выпущено: Великобритания, США
Продолжительность: 01:56:22
Перевод: Профессиональный (многоголосый) / Авторский

Файл:
Контейнер: MKV
Качество: WEB-DL 1080p (Amazon)
Видео: 1920×816 at 23.976 fps, MPEG-4 AVC,

14700 kbps avg
Аудио 1: Russian: 48 kHz, AC3, 2/0 (L,R) ch,

192 kbps avg |Многоголосый закадровый, ОРТ|
Аудио 2: Russian: 48 kHz, AC3, 2/0 (L,R) ch,

192 kbps avg |Одноголосый закадровый, М.Логинофф|
Аудио 3: English: 48 kHz, E-AC3, 2/0 (L,R) ch,

224 kbps avg
Субтитры: English
Размер: 12,66 Gb

Шина – королева джунглей / Sheena (1984) WEB-DL 1080p

Источник

Шина – королева джунглей / Sheena (1984) WEB-DL 1080p
| | Дата: 10 февраля 2021 | Просмотров: 180

Название: Шина – королева джунглей
Оригинальное название: Sheena
Год выхода: 1984
Жанр: фэнтези, приключения
Режиссер: Джон Гиллермин
В ролях: Таня Робертс, Тед Уасс, Донован Скотт, Элизабет Ренье Торо, Франс Зобда, Тревор Томас, Клифтон Джонс, Джон Форджэм, Эррол Джон, Сильвестр Уильямс

О фильме: Что делает белокурая, дикая и воинственная красавица в африканских джунглях? Как она сюда попала? Это Шина — королева джунглей. Её белые родители были убиты во время сафари, а девочку взяла на воспитание колдунья из местного племени. Шина выросла, теперь она полна сил, очаровательна, владеет магией и защищает африканские джунгли и их обитателей, как свой собственный дом, от вторжения чужаков!

Выпущено: Великобритания, США
Продолжительность: 01:56:22
Перевод: Профессиональный (многоголосый) / Авторский

Файл:
Контейнер: MKV
Качество: WEB-DL 1080p (Amazon)
Видео: 1920×816 at 23.976 fps, MPEG-4 AVC,

14700 kbps avg
Аудио 1: Russian: 48 kHz, AC3, 2/0 (L,R) ch,

192 kbps avg |Многоголосый закадровый, ОРТ|
Аудио 2: Russian: 48 kHz, AC3, 2/0 (L,R) ch,

192 kbps avg |Одноголосый закадровый, М.Логинофф|
Аудио 3: English: 48 kHz, E-AC3, 2/0 (L,R) ch,

224 kbps avg
Субтитры: English
Размер: 12,66 Gb

Шина – королева джунглей / Sheena (1984) WEB-DL 1080p

Источник

Скачать Шина – королева джунглей / Sheena (1984) BDRip 1080p | P, L1 бесплатно через торрент

Если Вы не хотите скачивать, Вы всегда можетепосмотреть онлайн, просто нажмите кнопку ниже :

Torrent_Bot

Торрент-Бот

Название: Шина – королева джунглей
Оригинальное название: Sheena
Год выхода: 1984

Страна: Великобритания, США
Студия: Colgems Productions Ltd., Columbia Pictures, Delphi II Productions
Продолжительность: 01:56:22
Жанр: фэнтези, приключения

Перевод:
— Профессиональный (многоголосый, закадровый) ОРТ
— Любительский (одноголосый, закадровый) Максим Логинофф

О фильме: Что делает белокурая, дикая и воинственная красавица в африканских джунглях? Как она сюда попала? Это Шина — королева джунглей. Её белые родители были убиты во время сафари, а девочку взяла на воспитание колдунья из местного племени. Шина выросла, теперь она полна сил, очаровательна, владеет магией и защищает африканские джунгли и их обитателей, как свой собственный дом, от вторжения чужаков!…

x264 [info]: frame I:1148 Avg QP:15.14 size:213278
x264 [info]: frame P:47836 Avg QP:17.55 size: 92793
x264 [info]: frame B:118393 Avg QP:19.76 size: 34137
x264 [info]: consecutive B-frames: 4.9% 4.6% 14.2% 49.9% 15.1% 11.0% 0.2% 0.0% 0.0% 0.0% 0.0% 0.0% 0.0%

Видео
Идентификатор : 1
Формат : AVC
Формат/Информация : Advanced Video Codec
Профиль формата : [email protected]
Параметр CABAC формата : Да
Параметр ReFrames формата : 5 кадров
Идентификатор кодека : V_MPEG4/ISO/AVC
Продолжительность : 1 ч. 56 м.
Битрейт : 10000 Кбит/сек
Ширина : 1920 пикселей
Высота : 812 пикселей
Соотношение сторон : 2,35:1
Режим частоты кадров : Постоянный
Частота кадров : 23,976 (24000/1001) кадра/сек
Цветовое пространство : YUV
Субдискретизация насыщенности : 4:2:0
Битовая глубина : 8 бит
Тип развёртки : Прогрессивная
Бит/(Пиксели*Кадры) : 0.268
Размер потока : 7,94 Гбайт (82%)
Библиотека кодирования : x264 core 146 r2538 121396c
Настройки программы : cabac=1 / ref=5 / deblock=1:-2:-2 / analyse=0x3:0x133 / me=umh / subme=11 / psy=1 / psy_rd=1.00:0.00 / mixed_ref=1 / me_range=32 / chroma_me=1 / trellis=2 / 8x8dct=1 / cqm=0 / deadzone=21,11 / fast_pskip=0 / chroma_qp_offset=-2 / threads=12 / lookahead_threads=2 / sliced_threads=0 / nr=0 / decimate=0 / interlaced=0 / bluray_compat=0 / constrained_intra=0 / bframes=12 / b_pyramid=2 / b_adapt=2 / b_bias=0 / direct=3 / weightb=1 / open_gop=0 / weightp=2 / keyint=240 / keyint_min=23 / scenecut=40 / intra_refresh=0 / rc=2pass / mbtree=0 / bitrate=10000 / ratetol=1.0 / qcomp=0.60 / qpmin=0 / qpmax=69 / qpstep=4 / cplxblur=20.0 / qblur=0.5 / ip_ratio=1.40 / pb_ratio=1.30 / aq=3:0.80
Язык : English
Default : Нет
Forced : Нет

Аудио #1
Идентификатор : 2
Формат : AC-3
Формат/Информация : Audio Coding 3
Расширение режима : CM (complete main)
Параметр Endianness формата : Big
Идентификатор кодека : A_AC3
Продолжительность : 1 ч. 56 м.
Вид битрейта : Постоянный
Битрейт : 192 Кбит/сек
Каналы : 2 канала
Расположение каналов : Front: L R
Частота : 48,0 КГц
Частота кадров : 31,250 кадров/сек (1536 spf)
Метод сжатия : С потерями
Размер потока : 160 Мбайт (2%)
Заголовок : MVO ОРТ
Язык : Russian
Default : Нет
Forced : Нет

Аудио #2
Идентификатор : 3
Формат : AC-3
Формат/Информация : Audio Coding 3
Профиль формата : Dolby Digital
Расширение режима : CM (complete main)
Параметр Endianness формата : Big
Идентификатор кодека : A_AC3
Продолжительность : 1 ч. 56 м.
Вид битрейта : Постоянный
Битрейт : 192 Кбит/сек
Каналы : 2 канала
Расположение каналов : Front: L R
Частота : 48,0 КГц
Частота кадров : 31,250 кадров/сек (1536 spf)
Метод сжатия : С потерями
Размер потока : 160 Мбайт (2%)
Заголовок : VO Максим Логинофф
Язык : Russian
Default : Нет
Forced : Нет

Аудио #3
Идентификатор : 4
Формат : DTS
Формат/Информация : Digital Theater Systems
Режим : 16
Параметр Endianness формата : Big
Идентификатор кодека : A_DTS
Продолжительность : 1 ч. 56 м.
Вид битрейта : Постоянный
Битрейт : 1509 Кбит/сек
Каналы : 2 канала
Расположение каналов : Front: L R
Частота : 48,0 КГц
Частота кадров : 93,750 кадра/сек (512 spf)
Битовая глубина : 24 бит
Метод сжатия : С потерями
Размер потока : 1,23 Гбайт (13%)
Язык : English
Default : Нет
Forced : Нет

Текст #1
Идентификатор : 5
Формат : UTF-8
Идентификатор кодека : S_TEXT/UTF8
Идентификатор кодека/Информация : UTF-8 Plain Text
Язык : English
Default : Нет
Forced : Нет

Текст #2
Идентификатор : 6
Формат : UTF-8
Идентификатор кодека : S_TEXT/UTF8
Идентификатор кодека/Информация : UTF-8 Plain Text
Заголовок : SDH
Язык : English
Default : Нет
Forced : Нет

Меню
00:00:00.000 : en:Chapter 01
00:16:28.862 : en:Chapter 02
00:23:40.877 : en:Chapter 03
00:34:24.979 : en:Chapter 04
00:44:18.405 : en:Chapter 05
00:54:34.562 : en:Chapter 06
01:07:31.088 : en:Chapter 07
01:14:02.855 : en:Chapter 08
01:23:55.655 : en:Chapter 09
01:31:49.170 : en:Chapter 10
01:39:51.735 : en:Chapter 11
01:44:41.858 : en:Chapter 12
01:54:07.966 : en:Chapter 13

Источник

Читайте также:  Шины для соляриса зимние в самаре
Поделиться с друзьями
Практические советы по железу и огороду